تبلیغات
Mathjax Mathml Codependency - Bruno Mars Grenade 1080p Resolution
چهارشنبه 25 اسفند 1395  04:43 ق.ظ
توسط: Andrea Schuler


bruno mars grenade 1080p resolution

Bruno Mars Grenade 1080p Resolution >>> http://shorl.com/rakavamifudro






















































Bruno Mars Grenade 1080p Resolution

torrents. edge of tomorrow. impractical jokers. torrent. tanked. american dad. portlandia. mature. grimm. A Million Ways to Die in the West. family guy.

game of thrones. escape to country. shameless. office. Home todays torrents yesterdays torrents . wolfenstein. MaxRNB › › › Music Video › Bruno Mars - Grenade (Vimeo) - 720P - 71MB [115] 12345678 : 1967: 72 [HD] Bruno Mars - Grenade (Vimeo) - 720P - 71MB [115] VIVIIC VIVIIC 12395UID328000100190 1949 2017-1-22 8721 (11) (11), 12395, 605 940 24 140 502 714 2009-11-9 1# 2011-12-15 17:21:57 ? QQ! /"" ------------------------------------------------------------------------------------------------ Video ID : 1 Format : AVC Format/Info : Advanced Video Codec Format profile : HighL3.1 Format settings, CABAC : Yes Format settings, ReFrames : 4 frames Codec ID : avc1 Codec ID/Info : Advanced Video Coding Duration : 3mn 45s Bit rate : 2 499 Kbps Maximum bit rate : 6 127 Kbps Width : 1 280 pixels Height : 720 pixels Display aspect ratio : 16:9 Frame rate mode : Constant Frame rate : 23.976 fps Color space : YUV Chroma subsampling : 4:2:0 Bit depth : 8 bits Scan type : Progressive Bits/(Pixel*Frame) : 0.113 Stream size : 67.2 MiB (94%) Writing library : Vimeo Encoder --------------------------------------------------------------------------------- Audio ID : 2 Format : AAC Format/Info : Advanced Audio Codec Format profile : LC Codec ID : 40 Duration : 3mn 45s Bit rate mode : Variable Bit rate : 155 Kbps Maximum bit rate : 179 Kbps Channel(s) : 2 channels Channel positions : Front: L R Sampling rate : 44.1 KHz Compression mode : Lossy Stream size : 4.17 MiB (6%) 1 Vicor : QQ Twitter Facebook More. divergent. 8a9bf390f8
isymphony 26 1080p led hdtv/dvd combo
dragon quest 8 1080p camcorder
1234 get on the dance floor 1080p backgrounds
upconverting dvd player 720p vs 1080i
breaking bad s05e16 720p hdtv x264-immerse subtitles for movies
hd videos 1080p hindi music videos latest 2016 election
iron man 720p khatrimaza bollywood
berserk ougon jidaihen i haou no tamago 1080p
hd filme 1080p test image
the social network online subtitrat 720p vs 960h


  • آخرین ویرایش:-
نظرات()   
   
How long does it take to recover from Achilles injury?
شنبه 18 شهریور 1396 02:41 ب.ظ
Hola! I've been following your blog for a long time now
and finally got the courage to go ahead and give you a shout out from Humble Texas!
Just wanted to tell you keep up the fantastic job!
What is the Ilizarov method?
شنبه 4 شهریور 1396 03:33 ب.ظ
What's up mates, how is the whole thing, and what you
wish for to say on the topic of this piece of writing, in my view
its actually awesome for me.
latoniaprehoda.jimdo.com
شنبه 14 مرداد 1396 08:48 ق.ظ
Keep on writing, great job!
BHW
سه شنبه 29 فروردین 1396 08:18 ق.ظ
When some one searches for his necessary thing, therefore he/she wishes to be
available that in detail, so that thing is maintained
over here.
manicure
دوشنبه 21 فروردین 1396 09:27 ب.ظ
I got this site from my buddy who informed me about this site and at the
moment this time I am visiting this web page and reading very informative articles
or reviews at this place.
manicure
یکشنبه 20 فروردین 1396 11:09 ق.ظ
I love your blog.. very nice colors & theme. Did you create this
website yourself or did you hire someone to do it for you?
Plz respond as I'm looking to construct my own blog and would like
to know where u got this from. kudos
 
لبخندناراحتچشمک
نیشخندبغلسوال
قلبخجالتزبان
ماچتعجبعصبانی
عینکشیطانگریه
خندهقهقههخداحافظ
سبزقهرهورا
دستگلتفکر